» » Vapour Trails - Vapour Trails

Vapour Trails - Vapour Trails download album

  • Performer: Vapour Trails
  • Title: Vapour Trails
  • Genre: Rock / Pop
  • Country: US
  • Formats: AC3 VQF MPC AHX TTA AAC ADX
  • Released: 1979
  • Style: Pop Rock
  • MP3 album: 1973 mb
  • FLAC album: 1189 mb
  • Rating: 4.6/5
  • Votes: 125
Vapour Trails - Vapour Trails download album

Vapour trails EP by Harrison BDP, Garth James, released 22 June 2018 1. Harrison BDP - Convection Zone 2. Harrison BDP - Untitled 3. Garth James - Dear Lizzie 4. Garth James - Guava Goose. 12" Vinyl of our Vapour trails EP - LIMITED PRESSING Includes unlimited streaming of Vapour trails EP via the free Bandcamp app, plus high-quality download in MP3, FLAC and more.

Reply Notify me Helpful.

Vapour Trails, recorded in Blaine L. Reininger's recent home base of Athens, finds him and his colleagues - lifers Steven Brown and Peter Principle, plus Luc Van Lieshout - pursuing their muses as they choose, mixing and matching sounds in unusual ways, simultaneously straightforwardly melodic and fracturing around the edges.

Vapour Trails скачать в mp3 на телефон или слушайте песню Vapour Trails - Night People, Alexander Popov - Vapour Trails, Vapour Trails - Do The Bossa Nova, Vapour Trails - True Love, Vapour Trails - Slow Dancing и другие популярные треки и рингтоны. Ride –Vapour Trail ( album, Nowhere, 1990 ). 4:55. Trespassers William –Vapour Trail. Vapour Trails –True Love. Aqualung –Vapour Trail. Subk0de –Vapour Trails. Sasha –Vapour Trails. Alexander Popov –Vapour Trails. Pantha Du Prince feat Joachim Sch tz & Kassian Troyer –Chasing Vapour Trails. Pekka Pohjola –Vapour Trails. Ollie Drummond –Vapour Trails. Simon Patterson Ft. Dave Wright –Vapour Trails. Vapour Trails –Falling. A –Aeroplane Tails & Vapour Trails. Vapour Trails –Slow Dancing.

Слушайте Vapour Trails и скачивайте бесплатно в формате mp3 прямо сейчас, без кодов, смс и регистрации. Throw Down The Dice - Vapour Trails. Hold On To Something Good - Vapour Trails. Non Merci - Vapour Trails. Strange Conversations - Vapour Trails. Falling - Vapour Trails. Vapour Trails - Neroche. Vapour Trails - London Elektricity. Vapour Trails - Sasha. Vapour Trail - Paula Kelley. Vapour Trails - Simon Patterson feat. Vapour Trails - Grace Lightman. Vapour Trail - Sylvan.

Vapour Trails by Jelsonic. Vapour Trails by Jelsonic is licensed under a Attribution License.

Vapour Trails 6 mixes. Vapour Trails 1378/1 David O'Brien (PRS) Gareth Johnson (PRS). Slow, sensual piano over ethereal pads & laid-back groove.

Tracklist

Do The Bossa Nova 3:04
Don't Worry Baby 3:45
Night People 3:30
True Love 3:44
It's All Right 3:11
Slow Dancing 3:19
Modern Love 2:51
Non Merci 3:10
Hold On To Something Good 3:06
Strange Conversations 3:31
Throw Down The Dice 3:35
Falling 2:46

Versions

Category Artist Title (Format) Label Category Country Year
BSK 3363 Vapour Trails* Vapour Trails ‎(LP, Album) Warner Bros. Records BSK 3363 US 1979
K 56722 Vapour Trails* Vapour Trails ‎(LP, Album) Warner Bros. Records K 56722 UK 1979
BSK 3363 Vapour Trails* Vapour Trails ‎(LP, Album, Jac) Warner Bros. Records BSK 3363 US 1979
BSK 3363 Vapour Trails Vapour Trails ‎(LP, Album, Win) Warner Bros. Records BSK 3363 US 1979
25S-32 The VT's Autumn Breeze ‎(LP, Album) Casablanca, Polystar 25S-32 Japan 1980
STEAL 1 Vapour Trails* The VT's ‎(LP) Criminal Records STEAL 1 UK 1980
WPCR-10478 Vapour Trails Vapour Trails ‎(CD, Album) Warner Bros. Records WPCR-10478 Japan 1999
WPCR-75251 Vapour Trails Vapour Trails ‎(CD, Album) Warner Bros. Records WPCR-75251 Japan 2006
WOU 3363 The VT's* Vapour Trails ‎(CD, Album, RE) Wounded Bird Records WOU 3363 US 2008



Reviews about Vapour Trails - Vapour Trails (2):
fightnight
foobar2000 1.3.17 / Dynamic Range Meter 1.1.1log date: 2019-01-15 20:41:04--------------------------------------------------------------------------------Analyzed: Vapour Trails / Vapour Trails [JP 1999 CD]--------------------------------------------------------------------------------DR Peak RMS Duration Track--------------------------------------------------------------------------------DR10 -0.59 dB -12.70 dB 3:09 01-Do The Bossa NovaDR11 -0.64 dB -13.89 dB 3:49 02-Don't Worry BabyDR12 -0.66 dB -14.40 dB 3:35 03-Night PeopleDR9 -0.52 dB -12.56 dB 3:47 04-True LoveDR10 -0.47 dB -12.25 dB 3:14 05-It's All RightDR10 -0.44 dB -14.24 dB 3:23 06-Slow DancingDR10 -0.45 dB -12.39 dB 2:54 07-Modern LoveDR10 -0.44 dB -12.02 dB 3:15 08-Non MerciDR10 -0.48 dB -13.18 dB 3:08 09-Hold On To Something GoodDR11 -0.46 dB -13.31 dB 3:37 10-Strange ConversationsDR12 -0.68 dB -15.13 dB 3:41 11-Throw Down The DiceDR11 -0.99 dB -15.87 dB 2:46 12-Falling--------------------------------------------------------------------------------Number of tracks: 12Official DR value: DR11Samplerate: 44100 HzChannels: 2Bits per sample: 16Bitrate: 726 kbpsCodec: ALAC================================================================================
Zargelynd
This should be moved here:http://www.discogs.com/Vapour-Trails-Vapour-Trails/master/302518

Related music albums: