» » Tomasz Stańko - A Farewell To Maria (Original Soundtrack)

Tomasz Stańko - A Farewell To Maria (Original Soundtrack) download album

  • Performer: Tomasz Stańko
  • Title: A Farewell To Maria (Original Soundtrack)
  • Genre: Jazz / Screen - Stage
  • Country: Poland
  • Formats: RA MP1 DTS ASF AIFF MPC FLAC
  • Released: 1994
  • Style: Soundtrack, Contemporary Jazz
  • MP3 album: 1376 mb
  • FLAC album: 1987 mb
  • Rating: 4.9/5
  • Votes: 480
Tomasz Stańko - A Farewell To Maria (Original Soundtrack) download album

This CD consists of original soundtrack to Telewizja Polska film "A Farewell To Maria" 1993. Rights Society: ZAIKS. Matrix, Runout: DADC AUSTRIA A0100227352-0101 14 AO. Matrix, Runout (Mastering SID code): IFPI L554. Matrix, Runout (Mould SID code): IFPI 94A8.

This soundtrack to Filip Zylber's film made for Polish television is among composer and trumpeter Tomasz Stanko's greatest achievements; it puts him on a par - when it comes to film music at least - with his former boss, the late Kryzsztof Komeda. Stanko composed for a sizable group here, his own quartet plus an additional five musicians and a string quintet. The set begins with the title theme as a leitmotif, with strings covering the backdrop and trumpet and soprano saxophones playing a noirish love theme, and then gives way after a few minutes to a very brief "Love Motive.

Artist: Tomasz Stanko Title Of Album: A Farewell To Maria (Original Soundtrack) Year Of Release: 1994 Label: Gowi Rec. Genre: Jazz Soundtracks, Contemporary Jazz Quality: FLAC (image+. Tracklist: 01. Leitmotif 02. Love Motive 03. Ave Maria 04. Love Motive In A Church 05. Wedding Waltz 06. Love-Main Scene 07. Wedding Tango 08. Love Scene-Farewell 09. Wedding Party 10. Love Theme 11.

Tomasz Stanko" INDEX 00 05:43:42 INDEX 01 05:45:30 TRACK 03 AUDIO TITLE "Ave Maria" PERFORMER "Tomasz Stanko" INDEX 00 06:38:12 INDEX 01 06:39:37 TRACK 04 AUDIO TITLE "Love Motive In A Church" PERFORMER "Tomasz Stanko" INDEX 00 08:48:07 INDEX 01 08:49:50 TRACK 05 AUDIO TITLE "Wedding Waltz" PERFORMER "Tomasz Stanko" INDEX. This CD consists of original soundtrack to Telewizja Polska film "A Farewell To Maria" 1993 All music composed by Tomasz Stanko except of Ave Maria composed by Gounod-Bach Recorded at S4 Studio, Warszawa, June 1993 Recording Engineer: Tadeusz Mieczkowski Poster Design: Krzysztof Jezowski Executive Producers: Zdzislaw Gogulski & Marek Winiarski.

1994 - A Farewell To Maria (Original Soundtrack)/HQCovers/Tomasz Stanko - A Farewell To Maria 0. pg - . 7. 1994 - A Farewell To Maria (Original Soundtrack)/HQCovers/Tomasz Stanko - A Farewell To Maria 0. 9. 2. 4. 1994 - A Farewell To Maria (Original Soundtrack)/Tomasz.

1 A Farewell To Maria: Leitmotif. 2 A Farewell To Maria: Love Motive. 4 A Farewell To Maria: Love Motive In A Church. 5 A Farewell To Maria: Wedding Waltz. 6 A Farewell To Maria: Love-Main Scene. CDG 12. Tomasz Stańko. A Farewell To Maria (Original Soundtrack) (CD, Album).

Album: A Farewell To Maria (Original Soundtrack). Genre: Jazz, Stage & Screen. Label: GOWI Records ‎– MCG 12 Type: Cassette, Album Country: Poland Date of released: 1994 Category: Jazz, Stage & Screen Style: Soundtrack, Contemporary Jazz. Tomasz Stańko - A Farewell To Maria (Original Soundtrack). Tomasz Stańko - A Farewell To Maria (Original Soundtrack) MP3 version. 1778 downloads at 42 mb/s. Tomasz Stańko - A Farewell To Maria (Original Soundtrack) FLAC version. 1763 downloads at 37 mb/s. 1. A Farewell To Maria: Leitmotif. A Farewell To Maria: Love Motive.

The Tomasz Stańko Quartet Song For Sarah.

Tracklist

A Farewell To Maria: Leitmotif 5:44
A Farewell To Maria: Love Motive 0:52
Ave Maria 2:07
A Farewell To Maria: Love Motive In A Church 3:13
A Farewell To Maria: Wedding Waltz 2:42
A Farewell To Maria: Love-Main Scene 2:42
A Farewell To Maria: Wedding Tango 1:42
A Farewell To Maria: Love Scene-Farewell 1:16
A Farewell To Maria: Wedding Party 5:26
A Farewell To Maria: Love Theme 2:15
A Farewell To Maria: The Slower Waltz From Wedding Party 2:42
A Farewell To Maria: Wedding Party - "Orgy" 5:52
A Farewell To Maria: Conclusion 4:47

Versions

Category Artist Title (Format) Label Category Country Year
MCG 12 Tomasz Stańko A Farewell To Maria (Original Soundtrack) ‎(Cass, Album) GOWI Records MCG 12 Poland 1994
CDG 12 Tomasz Stańko A Farewell To Maria (Original Soundtrack) ‎(CD, Album) GOWI Records CDG 12 Poland 1994


Related music albums: