» » David Lasley - Soldiers On The Moon

David Lasley - Soldiers On The Moon download album

  • Performer: David Lasley
  • Title: Soldiers On The Moon
  • Genre: Jazz / Rock / Funk & Soul / Pop
  • Country: Japan
  • Formats: MP3 ASF DXD VOX APE DTS MIDI
  • Released: 1989
  • MP3 album: 1535 mb
  • FLAC album: 1442 mb
  • Rating: 4.4/5
  • Votes: 857
David Lasley - Soldiers On The Moon download album

Complete your David Lasley collection. Soldiers On The Moon ‎(Cass, Album, Chr). referencing Soldiers On The Moon, CD, Album, 4700-2-Z, 4700-Z. 17, Dynamic Range Meter . 1 log date: 2018-08-30 20:10:32

More albums from David Lasley: Missin’ Twenty Grand by David Lasley. View all albums . Soldiers On The Moon. 2. 6. Give My Heart Back To Me. 7. Without The One You Love. 9. Since I Fell For You. 10. God Bless The Child. 11. I Think It’s Going To Rain Today. More albums from David Lasley: Missin’ Twenty Grand by David Lasley.

There are a few up numbers, but Lasley's Stylistic-like vocals are richest on the soaring parts of the ballads. Agenda was a promising new jazz label at the time of this release, and Lasley expanded them into the adult contemporary/easy listening market. Unfortunately, the singer went back to his day job of backup singing and never followed this up with anything of note

David Eldon Lasley (born August 20, 1947) is an American singer and songwriter, best known for his contributions as a background singer for such artists as Bonnie Raitt, James Taylor, Luther Vandross, Aretha Franklin, Dionne Warwick and Dusty Springfield. As the band Rosie, with Lynn Pitney and Lana Marrano also on vocals, Lasley released the album Better Late Than Never (RCA, 1976), which featured "Roll Me Through the Rushes", and then Last Dance (RCA, 1977) Discography. Missin' Twenty Grand – (1982). Soldiers on the Moon – (1990). Back to Blue-Eyed Soul – (2000). Expectations of Love – (2001). Demos Volume 2 – Take a Look – (2005).

David E. Lasley (born August 20, 1947 in Sault Ste. Marie, Michigan) is an American singer-songwriter, best known for his contributions as a background singer for such artists as Bonnie Raitt, James Taylor and Luther Vandross.

Soldiers On The Moon (CD, Album). Soldiers On The Moon (Cass, Album). Cool 042. David Lasley. Soldiers On The Moon (CD, Album, RE). Cool Sound. Category Country Year Pccy-00010 Japan 1989.

Soldiers On The Moon Written By – David Lasley, John. A4. You Bring Me Joy Written By – David. A5. Warm As The Wind Written By – Don Yowell. A6. Give My Heart Back Written By – Dennis. To Me O'Donnell, Eddie.

Soldiers on the Moon. Back to Blue-Eyed Soul: Collected Works. SongMeanings is a place for discussion and discovery.

Singer: David Lasley. Title: Soldiers On The Moon. David Lasley - Soldiers On The Moon download. Related at David Lasley - Soldiers On The Moon: David Buttolph His Orchestra And Chorus - The Horse Soldiers. Randy Crawford - Nightline + Abstract Emotions. James Taylor - Dad Loves His Work. Vaughn - Soldiers And Sailors On Riverside. David Lasley - Back To Blue-Eyed Soul. John Hall - John Hall.

Tracklist

It's Too Late 5:04
Soldiers On The Moon 4:47
Audrey 4:58
You Bring Me Joy 4:03
Warm As The Wind 4:57
Give My Heart Back To Me 4:46
Without The One You Love 4:12
Roslyn 4:58
Since I Fell For You 4:17
God Bless The Child 3:36
I Think It's Going To Rain Today 3:08

Versions

Category Artist Title (Format) Label Category Country Year
PCCY-00010 David Lasley Soldiers On The Moon ‎(CD, Album) P.C.H. PCCY-00010 Japan 1989
PCTY 00004 David Lasley Soldiers On The Moon ‎(Cass, Album) P.C.H. PCTY 00004 Indonesia 1989
4700-2-Z, 4700-Z David Lasley Soldiers On The Moon ‎(CD, Album) Agenda Records, Agenda Records 4700-2-Z, 4700-Z US 1990
4700-Z David Lasley Soldiers On The Moon ‎(Cass, Album, Chr) Agenda Records 4700-Z US 1990
COOL 042 David Lasley Soldiers On The Moon ‎(CD, Album, RE) Cool Sound COOL 042 Japan 2000

Reviews about David Lasley - Soldiers On The Moon (1):
Kamuro
foobar2000 1.3.17 / Dynamic Range Meter 1.1.1log date: 2018-08-30 20:10:32--------------------------------------------------------------------------------Analyzed: David Lasley / Soldiers On The Moon--------------------------------------------------------------------------------DR Peak RMS Duration Track--------------------------------------------------------------------------------DR13 -1.31 dB -18.66 dB 5:04 01-It's Too LateDR15 -0.49 dB -19.76 dB 4:48 02-Soldiers On The MoonDR15 -1.94 dB -20.11 dB 4:58 03-AudreyDR15 -0.51 dB -18.97 dB 4:03 04-You Bring Me JoyDR15 -1.12 dB -20.76 dB 4:58 05-Warm As The WindDR16 -0.30 dB -19.92 dB 4:46 06-Give My Heart Back To MeDR14 -1.52 dB -21.57 dB 4:13 07-Without The One You LoveDR15 -3.80 dB -23.94 dB 4:59 08-RoslynDR15 -0.61 dB -22.68 dB 4:17 09-Since I Fell For YouDR18 -0.31 dB -23.43 dB 3:37 10-God Bless The ChildDR12 -6.89 dB -23.78 dB 3:08 11-I Think It's Going To Rain Today--------------------------------------------------------------------------------Number of tracks: 11Official DR value: DR15Samplerate: 44100 HzChannels: 2Bits per sample: 16Bitrate: 660 kbpsCodec: ALAC================================================================================

Related music albums: