» » Cherubini, Maria Callas, Teresa Berganza, Elizabeth Carron, Jon Vickers, Nicola Zaccaria, Orchestra And Chorus Of The Dallas Civic Opera Co., Nicola Rescigno - Medea

Cherubini, Maria Callas, Teresa Berganza, Elizabeth Carron, Jon Vickers, Nicola Zaccaria, Orchestra And Chorus Of The Dallas Civic Opera Co., Nicola Rescigno - Medea download album

  • Performer: Cherubini
  • Title: Medea
  • Genre: Classical / Screen - Stage
  • Country: Italy
  • Formats: XM DXD TTA WAV DMF AIFF WMA
  • Released: 1959
  • Style: Opera, Romantic
  • MP3 album: 1723 mb
  • FLAC album: 1608 mb
  • Rating: 4.2/5
  • Votes: 615
Cherubini, Maria Callas, Teresa Berganza, Elizabeth Carron, Jon Vickers, Nicola Zaccaria, Orchestra And Chorus Of The Dallas Civic Opera Co., Nicola Rescigno - Medea download album

Luigi Cherubini, Maria Callas, Civic Opera Company , Direttore Nicola Rescigno, Vickers, Berganza, Carron, Zaccaria ‎– Medea. Label: Cls ‎– amdrl 32817. Format: 3 Vinyl, LP, Album, Reissue Box Set. Country: Italy. Composed By – Cherubini. Conductor – Nicola Rescigno. Liner Notes – Sergio Segalini. Orchestra, Chorus – Orchestra And Chorus Of The Dallas Civic Opera Co. Vocals, Performer – Judith Raskin, Mary MacKenzie, Peter Binder. Vocals, Performer – Nicola Zaccaria. Vocals, Performer – Elizabeth Carron. Vocals, Performer – Jon Vickers. Vocals, Performer – Maria Callas. Vocals, Performer – Teresa Berganza. Recorded in Dallas, Nov. 8, 1958. 4-page insert with notes. Other Versions (1 of 1) View All. Cat.

Nicola Zaccaria, Elisabeth Carron, Jon Vickers, Maria Callas, Teresa Berganza, Peter Binder, Judith Raskin, Mary MacKenzie, Happy & Janet Thigpen, Orchestra & Chorus of the Dallas Civic Opera Company, Jaime Leon, Nicola Rescigno: "Medina", Atto Primo: Ahimè! Gioir vorrei; (Glauce, Ancelle, Coro), "Medina", Atto Secondo: Introduzione, "Medina", Atto Primo: Or che più non vedrò (Giasone) и другие песни. Вся дискография, Радио, Концерты, рекомендации и похожие исполнители.

Luigi Cherubini (Composed By), Nicola Rescigno (Conductor), Orchestra And Chorus Of The Dallas Civic Opera Co. (Orchestra, Chorus), Judith Raskin (Vocals, Performer), Mary MacKenzie (Vocals, Performer), Peter Binder (Vocals, Performer), Nicola Zaccaria (Vocals, Performer ), Elizabeth Carron (Vocals, Performer ), Jon Vickers (Vocals, Performer ), Maria Callas (Vocals, Performer ), Teresa Berganza (Vocals, Performer ). .Luigi Cherubini-Medea, Hibla Gerzmava, part 1. Medea at the Stanislavski and Moscow Music Theatre. Production by Alexander Titel.

Cherubini: Medea Dallas, 6 November 1958. Callas is well supported in all three, especially in the casting of the tenors. Gino Penno, Mirto Picchi and Jon Vickers were all class acts: big, dramatic voices of a kind virtually extinct. Vickers is pre-eminent amongst them for the intensity of his commitment but none disappoints. Otherwise, the rest of the casts matter little. Nicola Rescigno keeps the orchestra tight throughout, as always, never drowning out the voices. The only problem on this and other live recordings of the era is the sound quality.

Maria Callas, Elisabeth Carron, Teresa Berganza, Jon Vickers, Nicola Zaccaria. Nicola Rescigno Dallas Civic Opera Company (Recording of a performance at State Fair Music Hall, Dallas, 8 November). Audio CD: MELODRAM MEL 26016 GALA GL 10. 21 MYTO 2 CD 00164 Hamilton, Frank (2010). Maria Callas discography of opera performances and interviews" (PDF). Frank Hamilton org. Frank Hamilton. Nicola Rescigno Orchestra and Chorus of the Royal Opera House, Covent Garden. Recording of a performance by the BBC at the Royal Opera House, 30 June). Audio CD: ICA Classics Cat: ICAC 5110.

Medea - Maria Callas Creonte - Nicola Zaccaria Neris - Teresa Berganza. Orchestra and Chorus of the Dallas Civic Opera Nicola Rescigno, conductor. Dallas Civic Opera, November 6, 1958.

Luigi Cherubini, Nicola Zaccaria, Elizabeth Carron, Jon Vickers, Maria Callas, Teresa Berganza, Peter Binder, Judith Raskin, Mary MacKenzie, Happy Thigpen, Janet Thigpen, Dallas Civic Opera Company Chorus, Dallas Civic Opera Company Orchestra, Nicola Rescigno.

Nicola Rescigno - Chorus and Orchestra of Dallas Civic Opera" INDEX 01 00:00:00 TRACK 02 AUDIO TITLE "02 Atto I - Che? Quando già corona Amor" PERFORMER "Callas, Vickers, Carron, Zaccaria, Berganza - Nicola Rescigno - Chorus and Orchestra of Dallas Civic Opera" INDEX 01 07:11:17 TRACK 03 AUDIO TITLE "03 Atto I - Ahimè! gioir vorrei" PERFORMER "Callas, Vickers, Carron, Zaccaria, Berganza - Nicola Rescigno - Chorus and Orchestra of Dallas Civic Opera" INDEX 01 10:29:55 TRACK 04 AUDIO TITLE "04 Atto I - O Amore

Nicola Zaccaria, Elisabeth Carron, Jon Vickers, Maria Callas, Teresa Berganza, Peter Binder, Judith Raskin, Mary MacKenzie, Happy & Janet Thigpen, Orchestra & Chorus of the Dallas Civic Opera Company, Jaime Leon, Nicola Rescigno. Strauss: Elektra - Wagner: Die Walküre, Act. I. Leonie Rysanek, Teresa Stratas, Mignon Dunn, Jean Madeira, Norman Scott, Inge Borkh.

Cherubini: Médée - Maria Callas, Nicola Rescigno, Orchestra of the Royal Opera House, Covent Garden, Nicola Zaccaria, Chorus of the Royal Opera House, Covent Garden, Jon Carlyle, Luigi Cherubini. Открывайте новую музыку каждый день. Лента с персональными рекомендациями и музыкальными новинками, радио, подборки на любой вкус, удобное управление своей коллекцией. Миллионы композиций бесплатно и в хорошем качестве.

Tracklist

A Act One, Part 1
B1 Act One (Conclusion)
B2 Act Two, Part 1
C Act Two (Conclusion)
D Act Three

Credits

  • Composed By – Cherubini*
  • Conductor – Nicola Rescigno
  • Orchestra, Chorus – Orchestra And Chorus Of The Dallas Civic Opera Co.
  • Vocals, Performer – Judith Raskin, Mary MacKenzie, Peter Binder
  • Vocals, Performer [Creon] – Nicola Zaccaria
  • Vocals, Performer [Glauce] – Elizabeth Carron
  • Vocals, Performer [Jason] – Jon Vickers
  • Vocals, Performer [Medea] – Maria Callas
  • Vocals, Performer [Neris] – Teresa Berganza

Notes

Recorded: Nov. 8, 1958

On labels: "Private Recording Not for Sale"

LP 1: side's A & B
LP 2: side's C & D

Barcode and Other Identifiers

  • Matrix / Runout (Label side A): FWR 647-A
  • Matrix / Runout (Label side B): FWR 647-B
  • Matrix / Runout (Label side C): FWR 647-C
  • Matrix / Runout (Label side D): FWR 647-D
  • Matrix / Runout (Run-out etching side A): FWR 647A-2
  • Matrix / Runout (Run-out etching side B): FWR 647B-2
  • Matrix / Runout (Run-out etching side C): FWR 647C-2
  • Matrix / Runout (Run-out etching side D): FWR 647D-2

Other versions

Category Artist Title (Format) Label Category Country Year
AMDRL 32817 Luigi Cherubini / Maria Callas, Civic Opera Company* , Direttore Nicola Rescigno, Vickers*, Berganza*, Carron*, Zaccaria* Luigi Cherubini / Maria Callas, Civic Opera Company* , Direttore Nicola Rescigno, Vickers*, Berganza*, Carron*, Zaccaria* - Medea ‎(3xLP, Album, RE + Box) CLS AMDRL 32817 Italy 1980


Related music albums: