» » Stefan Pelzl's Juju & Idris Muhammad - Tales Of Sisyphos

Stefan Pelzl's Juju & Idris Muhammad - Tales Of Sisyphos download album

  • Performer: Stefan Pelzl's Juju
  • Title: Tales Of Sisyphos
  • Genre: Jazz
  • Formats: MP2 MOD VOX MP1 TTA XM AU
  • Released: 1992
  • MP3 album: 1597 mb
  • FLAC album: 1461 mb
  • Rating: 4.8/5
  • Votes: 520
Stefan Pelzl's Juju & Idris Muhammad - Tales Of Sisyphos download album

Stefan Pelzl's Juju & Idris Muhammad Yougoslavian Railroad Song. Stefan Pelzl's Juju feat. Idris Muhammad Back and Up. (play). Stefan Pelzl's Juju & Idris Muhammad Back And Up. Other listen. jim reeves love is no excuse.

Artist: Stefan Pelzl's Juju Title Of Album: featuring Idris Muhammad Year Of Release: 1998 Label: L+R Records Genre: Post-Bop, Contemporary Jazz Quality: FLAC (tracks+. Tracklist: 01. Hope For The Hopi 02. Song For Yusef 03. Auf Dem Weg Nach Bali 04. Back And Up 05. Peace 06. Wiedergeburt 07. Yougoslavian Railroad Song.

Idris Muhammad, Juju. Idris Muhammad - S/T. Label: L+R Records Distrib. Bellaphon Sound Service Catalog CDLR 45026 Format: CD, Album Country: Germany (Austria) Released: 1990 Genre: Jazz. Tracklist: 1 Hope For The Hopi 6:11 2 Song For Yusef 4:47 3 Auf Dem Weg Nach Bali 12:27 4 Back And Up 4:54 5 Peace 4:40 6 Wiedergeburt :28 7 Yougoslavian Railroad Song 6:41. Stefan Pelzl´s JUJU is one of Austria’s most constant and creative Jazz ensembles. Shortly after its foundation in 1988, the group won the 2nd Lower Austria Jazz Contest.

Idris Muhammad download free and listen online. Idris Muhammad Power of Soul.

1 Red Shoes All Day Long 4:16.

Band: Stefan Pelzl's Juju.

Idris Muhammad, Juju Used drive : PIONEER BD-RW BDR-206 Adapter: 0 ID: 2 Read mode : Secure Utilize accurate stream : Yes Defeat audio cache : Yes Make use of C2 pointers : No Read offset correction : 667 Overread into Lead-In and Lead-Out : No Fill up missing offset samples with silence : Yes Delete leading and trailing silent blocks : No Null samples used i. Idris Muhammad - Juju. flac" WAVE TRACK 01 AUDIO TITLE "Hope For The Hopi" PERFORMER "Stefan Pelzl's feat. Idris Muhammad" INDEX 01 00:00:00 TRACK 02 AUDIO TITLE "Song For Yusef" PERFORMER "Stefan Pelzl's feat. Idris Muhammad" INDEX 00 06:08:02 INDEX 01 06:11:25 TRACK 03 AUDIO TITLE "Auf Dem Weg Nach Bali" PERFORMER "Stefan Pelzl's feat. Idris Muhammad" INDEX 00 10:54:67 INDEX 01 10:58:25 TRACK 04 AUDIO TITLE "Back And Up" PERFORMER "Stefan Pelzl's feat.

Renews automatically.

Tracklist

1 Red Shoes All Day Long 4:16
2 New Friends 5:31
3 Space Of Light 6:19
4 Lovers 5:36
5 Pürbach 14 4:43
6 Tales Of Sisyphos 6:49
7 My Life With The Gruftis 7:32
8 Big John 4:47
9 Wie Hund Und Katz 4:37
10 Hochzeitslied 2:53
11 Space Of Light (Reprise) 1:06

Barcode and Other Identifiers

  • Rights Society: Austro Mechana
  • Label Code: LC 8395


Related music albums: